Loading...
 * Dettagli Torrent   globale  | Commenti (1) 


- Looper - In fuga dal passato (2012).720p.H264.ita.eng.Ac3-5.1.sub.ita.eng-MIRCrew -


Download via torrent:
Categoria bittorrent BDRip
Descrizione
visitate mircrew-releases

Looper - In fuga dal passato (2012).720p.H264.ita.eng.Ac3-5.1.sub.ita.eng-MIRCrew


NO FOUND ONLY ORIGINAL RELEASE

My release is always in double track audio italian and Original audio
for select it use VLC or dvd player home
not use wmp

Looper - In fuga dal passato (2012)

Quality MIRCrew on HD 720p da  1,9 gb









Lingua originale inglese
Paese di produzione Stati Uniti d'America
Anno 2012
Durata 119 min
Rapporto 2.35:1
Genere thriller, fantascienza, azione
Regia Rian Johnson
Sceneggiatura Rian Johnson



   Joseph Gordon-Levitt: Joe giovane
   Bruce Willis: Joe adulto
   Emily Blunt: Sara
   Paul Dano: Seth
   Noah Segan: Kid Blue
   Piper Perabo: Suzie
   Jeff Daniels: Abe
   Pierce Gagnon: Cid
   Summer Qing: moglie di Joe vecchio
   Tracie Thoms: Beatrix
   Frank Brennan: Seth vecchio
   Garret Dillahunt: Jesse
   Nick Gomez: Dale



Nell'anno 2044 Joe è un looper: un killer che lavora per la criminalità organizzata uccidendo su commissione, con un grosso fucile detto spingarda, persone mandate indietro nel tempo da un prossimo futuro, l'anno 2074, in cui il viaggio nel tempo è da poco divenuto realtà, anche se usarlo è un reato gravissimo



In 2074, when the mob wants to get rid of someone, the target is sent into the past, where a hired gun awaits - someone like Joe - who one day learns the mob wants to 'close the loop' by sending back Joe's future self for assassination.

 











General
Unique ID                                : 241285877963539832308769620080154862394 (0xB585F841B7C3F5D29E40D1B980F3633A)
Complete name                            : Looper (2012).720p.h264.ita.eng.sub.ita.eng-MIRCrewLooper (2012)720p.h264.ita.eng.sub.ita.eng-MIRCrew.mkv
Format                                   : Matroska
Format version                           : Version 2
File size                                : 1.84 GiB
Duration                                 : 1h 58mn
Overall bit rate                         : 2 211 Kbps
Movie name                               : MIRCrew
Encoded date                             : UTC 2019-07-04T19:56:58Z
Writing application                      : mkvmerge v5.8.0 ('No Sleep / Pillow&#39 built on Sep  2 2012 15:37:04
Writing library                          : Lavf55.12.0

Video
ID                                       : 1
Format                                   : AVC
Format/Info                              : Advanced Video Codec
Format profile                           : [email protected]
Format settings, CABAC                   : Yes
Format settings, ReFrames                : 4 frames
Codec ID                                 : V_MPEG4/ISO/AVC
Duration                                 : 1h 58mn
Bit rate                                 : 1 335 Kbps
Width                                    : 1 280 pixels
Height                                   : 544 pixels
Display aspect ratio                     : 2.35:1
Frame rate                               : 23.976 fps
Color space                              : YUV
Chroma subsampling                       : 4:2:0
Bit depth                                : 8 bits
Scan type                                : Progressive
Bits/(Pixel*Frame)                       : 0.080
Stream size                              : 1.11 GiB (60%)
Title                                    : MIRCrew
Writing library                          : x264 core 142 r2479 dd79a61
Encoding settings                        : cabac=1 / ref=1 / deblock=1:0:0 / analyse=0x1:0x111 / me=hex / subme=2 / psy=1 / psy_rd=1.00:0.00 / mixed_ref=0 / me_range=16 / chroma_me=1 / trellis=0 / 8x8dct=0 / cqm=0 / deadzone=21,11 / fast_pskip=1 / chroma_qp_offset=0 / threads=9 / lookahead_threads=3 / sliced_threads=0 / nr=0 / decimate=1 / interlaced=0 / bluray_compat=0 / constrained_intra=0 / bframes=3 / b_pyramid=2 / b_adapt=1 / b_bias=0 / direct=1 / weightb=1 / open_gop=0 / weightp=1 / keyint=240 / keyint_min=24 / scenecut=40 / intra_refresh=0 / rc_lookahead=10 / rc=crf / mbtree=1 / crf=20.0 / qcomp=0.60 / qpmin=0 / qpmax=69 / qpstep=4 / vbv_maxrate=50000 / vbv_bufsize=62500 / crf_max=0.0 / nal_hrd=none / filler=0 / ip_ratio=1.40 / aq=1:1.00
Language                                 : Italian
Default                                  : Yes
Forced                                   : No
Color primaries                          : BT.709-5, BT.1361, IEC 61966-2-4, SMPTE RP177
Transfer characteristics                 : BT.709-5, BT.1361
Matrix coefficients                      : BT.709-5, BT.1361, IEC 61966-2-4 709, SMPTE RP177

Audio #1
ID                                       : 2
Format                                   : AC-3
Format/Info                              : Audio Coding 3
Mode extension                           : CM (complete main)
Codec ID                                 : A_AC3
Duration                                 : 1h 58mn
Bit rate mode                            : Constant
Bit rate                                 : 448 Kbps
Channel(s)                               : 6 channels
Channel positions                        : Front: L C R, Side: L R, LFE
Sampling rate                            : 48.0 KHz
Bit depth                                : 16 bits
Compression mode                         : Lossy
Delay relative to video                  : -5ms
Stream size                              : 381 MiB (20%)
Title                                    : Ita Ac3 5.1
Language                                 : Italian
Default                                  : Yes
Forced                                   : No

Audio #2
ID                                       : 3
Format                                   : AC-3
Format/Info                              : Audio Coding 3
Mode extension                           : CM (complete main)
Codec ID                                 : A_AC3
Duration                                 : 1h 58mn
Bit rate mode                            : Constant
Bit rate                                 : 384 Kbps
Channel(s)                               : 6 channels
Channel positions                        : Front: L C R, Side: L R, LFE
Sampling rate                            : 48.0 KHz
Bit depth                                : 16 bits
Compression mode                         : Lossy
Delay relative to video                  : -5ms
Stream size                              : 327 MiB (17%)
Title                                    : Eng Ac3 5.1
Language                                 : English
Default                                  : No
Forced                                   : No

Menu
00:00:00.000                             : :CAPITOLO 1
00:07:27.780                             : :CAPITOLO 2
00:13:31.977                             : :CAPITOLO 3
00:21:22.614                             : :CAPITOLO 4
00:26:48.231                             : :CAPITOLO 5
00:31:51.326                             : :CAPITOLO 6
00:41:28.527                             : :CAPITOLO 7
00:49:33.554                             : :CAPITOLO 8
00:54:10.580                             : :CAPITOLO 9
01:00:35.089                             : :CAPITOLO 10
01:08:10.127                             : :CAPITOLO 11
01:15:23.435                             : :CAPITOLO 12
01:23:57.824                             : :CAPITOLO 13
01:34:25.993                             : :CAPITOLO 14
01:41:04.683                             : :CAPITOLO 15
01:46:29.466                             : :CAPITOLO 16



Info: Per scaricare devi usare un client come uTorrent o Transmission
AnnounceURL
udp://tracker.coppersurfer.tk:6969/announce
Hash a570c7ddebdd59b091d25511888a8dcaad7aa9d1
Peers seeds: 49 , leech: 10
Size 1.84 GB
Completato 716x
Aggiunto 09.07.19 - 20:07:22
Uploader   robbyrs
Votazione (Voti: 1)


Condividi questo bittorrent:


html/blog:


bbcode/forum:




Aggiungi Commento
Ultimi commenti
 jackal98jackal98   
Grazie
10/07 08.27
Tutti commenti (1)


counter